Author Topic: Предлог за SSD  (Read 1437 times)

Offline GigaWatt

  • Администратор
  • Топ Експерт
  • *****
  • Posts: 12427
  • Gender: Male
  • Не фалширам
Re: Предлог за SSD
« Reply #15 on 10.12.2019, Tuesday, 08:28:02 »
Немаш инсталирано кодеци, затоа не ти вади слика. Инсталирај го K-Lite Mega Codec Pack-от, заедно со него доаѓа и MCP-HC (ако веќе го имаш инсталирано MPC-HC, uninstall направи му), пушти го потоа преку MPC-HC, би требало да не сецка ;). На Q9550 не би требало никаков проблем да прави било каков филм во Full HD. x265 или VP9 може да прават мали проблеми при мотање (споро да мота) на Full HD, но освен тоа, не би требало да има никаков проблем ;).

Code: [Select]
https://www.free-codecs.com/download/k_lite_mega_codec_pack.htm
It's not schizophrenia... It's just a voice in my head...

"This is really a generic concept about human thinking - when faced with large tasks we're naturally inclined to try to break them down into a bunch of smaller tasks that together make up the whole."

"Newton's third law: The only way humans have ever figured out of getting somewhere is to leave something behind."

Offline bicikle

  • Топ Експерт
  • *****
  • Posts: 3802
  • Gender: Male
Re: Предлог за SSD
« Reply #16 on 10.12.2019, Tuesday, 09:45:13 »
K-Lite го имам инсталисано, ама изгледа друга верзија, ќе пробам реинстал.

Offline GigaWatt

  • Администратор
  • Топ Експерт
  • *****
  • Posts: 12427
  • Gender: Male
  • Не фалширам
Re: Предлог за SSD
« Reply #17 on 10.12.2019, Tuesday, 14:34:53 »
Провери со MediaInfo што кодек користи за аудио и видео. Можно е да е некој лев или лошо да е кодиран филмот.
It's not schizophrenia... It's just a voice in my head...

"This is really a generic concept about human thinking - when faced with large tasks we're naturally inclined to try to break them down into a bunch of smaller tasks that together make up the whole."

"Newton's third law: The only way humans have ever figured out of getting somewhere is to leave something behind."

Offline bicikle

  • Топ Експерт
  • *****
  • Posts: 3802
  • Gender: Male
Re: Предлог за SSD
« Reply #18 on 11.12.2019, Wednesday, 21:20:34 (Edited 12.12.2019, Thursday, 01:43:12) »
Има промени, ама пак процесорот го рока на 100%, хдд онака лабаво 10mb/s, рамот околу 2gb графичкава е со pmw  и е релативно тивка, значи не е оптоварена, што толку го оптеретува цпу-во појма немам. На крај ќе испадне нема врска хдд-во.
По моја пресмета филмот е 45 гигабајти, односно 45*1024=46080мб трае 2 саати, односно 60*60*120=43200 па ќе треба 46080/43200=~1.07 mb\s што не би требало да е проблем ни за ide hdd. Испадна дека е друго проблемов, не хдд али да продолжиме овде...
Ете и инфо (бројките во пресметките се заокружени)

Media Info:

Code: [Select]
General
Format                      : Matroska
Format version              : Version 4
File size                   : 45.6 GiB
Duration                    : 2 h 3 min
Overall bit rate mode       : Variable
Overall bit rate            : 53.1 Mb/s
Movie name                  : Ad Astra 4K
Encoded date                : UTC 2019-12-06 07:00:49
Writing application         : mkvmerge v40.0.0 ('Old Town Road + Pony') 64-bit
Writing library             : libebml v1.3.9 + libmatroska v1.5.2

Video
ID                          : 1
Format                      : HEVC
Format/Info                 : High Efficiency Video Coding
Format profile              : Main 10@L5.1@High
HDR format                  : SMPTE ST 2086, HDR10 compatible
Codec ID                    : V_MPEGH/ISO/HEVC
Duration                    : 2 h 3 min
Bit rate                    : 47.9 Mb/s
Width                       : 3 840 pixels
Height                      : 2 160 pixels
Display aspect ratio        : 16:9
Frame rate mode             : Constant
Frame rate                  : 23.976 (24000/1001) FPS
Color space                 : YUV
Chroma subsampling          : 4:2:0 (Type 2)
Bit depth                   : 10 bits
Bits/(Pixel*Frame)          : 0.241
Stream size                 : 41.2 GiB (90%)
Default                     : Yes
Forced                      : No
Color range                 : Limited
Color primaries             : BT.2020
Transfer characteristics    : PQ
Matrix coefficients         : BT.2020 non-constant
Mastering display color pri : Display P3
Mastering display luminance : min: 0.0050 cd/m2, max: 1000 cd/m2

Audio #1
ID                          : 2
Format                      : MLP FBA 16-ch
Format/Info                 : Meridian Lossless Packing FBA with 16-channel presentation
Commercial name             : Dolby TrueHD with Dolby Atmos
Codec ID                    : A_TRUEHD
Duration                    : 2 h 3 min
Bit rate mode               : Variable
Bit rate                    : 3 388 kb/s
Maximum bit rate            : 6 165 kb/s
Channel(s)                  : 8 channels
Channel layout              : L R C LFE Ls Rs Lb Rb
Sampling rate               : 48.0 kHz
Frame rate                  : 1 200.000 FPS (40 SPF)
Compression mode            : Lossless
Stream size                 : 2.91 GiB (6%)
Title                       : TrueHD Atmos 7.1
Language                    : English
Default                     : Yes
Forced                      : No
Number of dynamic objects   : 13
Bed channel count           : 1 channel
Bed channel configuration   : LFE

Audio #2
ID                          : 3
Format                      : AC-3
Format/Info                 : Audio Coding 3
Commercial name             : Dolby Digital
Codec ID                    : A_AC3
Duration                    : 2 h 3 min
Bit rate mode               : Constant
Bit rate                    : 640 kb/s
Channel(s)                  : 6 channels
Channel layout              : L R C LFE Ls Rs
Sampling rate               : 48.0 kHz
Frame rate                  : 31.250 FPS (1536 SPF)
Compression mode            : Lossy
Stream size                 : 563 MiB (1%)
Title                       : AC3 5.1
Language                    : English
Service kind                : Complete Main
Default                     : No
Forced                      : No

Audio #3
ID                          : 4
Format                      : AC-3
Format/Info                 : Audio Coding 3
Commercial name             : Dolby Digital
Codec ID                    : A_AC3
Duration                    : 2 h 3 min
Bit rate mode               : Constant
Bit rate                    : 224 kb/s
Channel(s)                  : 2 channels
Channel layout              : L R
Sampling rate               : 48.0 kHz
Frame rate                  : 31.250 FPS (1536 SPF)
Compression mode            : Lossy
Stream size                 : 197 MiB (0%)
Title                       : Commentary by Director James Gray
Language                    : English
Service kind                : Complete Main
Default                     : No
Forced                      : No

Text #1
ID                          : 5
Format                      : PGS
Codec ID                    : S_HDMV/PGS
Codec ID/Info               : Picture based subtitle format used on BDs/HD-DVDs
Duration                    : 1 h 50 min
Bit rate                    : 36.0 kb/s
Count of elements           : 2786
Stream size                 : 28.5 MiB (0%)
Title                       : English (SDH)
Language                    : English
Default                     : No
Forced                      : No

Text #2
ID                          : 6
Format                      : PGS
Codec ID                    : S_HDMV/PGS
Codec ID/Info               : Picture based subtitle format used on BDs/HD-DVDs
Duration                    : 2 h 2 min
Bit rate                    : 22.6 kb/s
Count of elements           : 2154
Stream size                 : 19.7 MiB (0%)
Title                       : Czech
Language                    : Czech
Default                     : No
Forced                      : No

Text #3
ID                          : 7
Format                      : PGS
Codec ID                    : S_HDMV/PGS
Codec ID/Info               : Picture based subtitle format used on BDs/HD-DVDs
Duration                    : 2 h 1 min
Bit rate                    : 22.8 kb/s
Count of elements           : 1706
Stream size                 : 19.9 MiB (0%)
Title                       : Danish
Language                    : Danish
Default                     : No
Forced                      : No

Text #4
ID                          : 8
Format                      : PGS
Codec ID                    : S_HDMV/PGS
Codec ID/Info               : Picture based subtitle format used on BDs/HD-DVDs
Duration                    : 2 h 1 min
Bit rate                    : 21.8 kb/s
Count of elements           : 1876
Stream size                 : 19.0 MiB (0%)
Title                       : Dutch
Language                    : Dutch
Default                     : No
Forced                      : No

Text #5
ID                          : 9
Format                      : PGS
Codec ID                    : S_HDMV/PGS
Codec ID/Info               : Picture based subtitle format used on BDs/HD-DVDs
Duration                    : 2 h 2 min
Bit rate                    : 24.2 kb/s
Count of elements           : 2156
Stream size                 : 21.2 MiB (0%)
Title                       : Finnish
Language                    : Finnish
Default                     : No
Forced                      : No

Text #6
ID                          : 10
Format                      : PGS
Codec ID                    : S_HDMV/PGS
Codec ID/Info               : Picture based subtitle format used on BDs/HD-DVDs
Duration                    : 2 h 2 min
Bit rate                    : 23.9 kb/s
Count of elements           : 2264
Stream size                 : 20.9 MiB (0%)
Title                       : French
Language                    : French
Default                     : No
Forced                      : No

Text #7
ID                          : 11
Format                      : PGS
Codec ID                    : S_HDMV/PGS
Codec ID/Info               : Picture based subtitle format used on BDs/HD-DVDs
Duration                    : 2 h 1 min
Bit rate                    : 28.5 kb/s
Count of elements           : 2298
Stream size                 : 24.8 MiB (0%)
Title                       : German
Language                    : German
Default                     : No
Forced                      : No

Text #8
ID                          : 12
Format                      : PGS
Codec ID                    : S_HDMV/PGS
Codec ID/Info               : Picture based subtitle format used on BDs/HD-DVDs
Duration                    : 2 h 2 min
Bit rate                    : 26.5 kb/s
Count of elements           : 2148
Stream size                 : 23.2 MiB (0%)
Title                       : Hungarian
Language                    : Hungarian
Default                     : No
Forced                      : No

Text #9
ID                          : 13
Format                      : PGS
Codec ID                    : S_HDMV/PGS
Codec ID/Info               : Picture based subtitle format used on BDs/HD-DVDs
Duration                    : 2 h 2 min
Bit rate                    : 26.6 kb/s
Count of elements           : 2146
Stream size                 : 23.3 MiB (0%)
Title                       : Italian
Language                    : Italian
Default                     : No
Forced                      : No

Text #10
ID                          : 14
Format                      : PGS
Codec ID                    : S_HDMV/PGS
Codec ID/Info               : Picture based subtitle format used on BDs/HD-DVDs
Duration                    : 2 h 2 min
Bit rate                    : 16.8 kb/s
Count of elements           : 2105
Stream size                 : 14.7 MiB (0%)
Title                       : Japanese
Language                    : Japanese
Default                     : No
Forced                      : No

Text #11
ID                          : 15
Format                      : PGS
Codec ID                    : S_HDMV/PGS
Codec ID/Info               : Picture based subtitle format used on BDs/HD-DVDs
Duration                    : 2 h 1 min
Bit rate                    : 16.5 kb/s
Count of elements           : 2152
Stream size                 : 14.4 MiB (0%)
Title                       : Korean
Language                    : Korean
Default                     : No
Forced                      : No

Text #12
ID                          : 16
Format                      : PGS
Codec ID                    : S_HDMV/PGS
Codec ID/Info               : Picture based subtitle format used on BDs/HD-DVDs
Duration                    : 2 h 2 min
Bit rate                    : 25.6 kb/s
Count of elements           : 2154
Stream size                 : 22.3 MiB (0%)
Title                       : Norwegian
Language                    : Norwegian
Default                     : No
Forced                      : No

Text #13
ID                          : 17
Format                      : PGS
Codec ID                    : S_HDMV/PGS
Codec ID/Info               : Picture based subtitle format used on BDs/HD-DVDs
Duration                    : 2 h 2 min
Bit rate                    : 23.9 kb/s
Count of elements           : 2084
Stream size                 : 20.9 MiB (0%)
Title                       : Polish
Language                    : Polish
Default                     : No
Forced                      : No

Text #14
ID                          : 18
Format                      : PGS
Codec ID                    : S_HDMV/PGS
Codec ID/Info               : Picture based subtitle format used on BDs/HD-DVDs
Duration                    : 2 h 1 min
Bit rate                    : 25.7 kb/s
Count of elements           : 2186
Stream size                 : 22.4 MiB (0%)
Title                       : Spanish (Castilian)
Language                    : Spanish
Default                     : No
Forced                      : No

Text #15
ID                          : 19
Format                      : PGS
Codec ID                    : S_HDMV/PGS
Codec ID/Info               : Picture based subtitle format used on BDs/HD-DVDs
Duration                    : 2 h 2 min
Bit rate                    : 25.2 kb/s
Count of elements           : 2106
Stream size                 : 22.0 MiB (0%)
Title                       : Spanish (Latin American)
Language                    : Spanish
Default                     : No
Forced                      : No

Text #16
ID                          : 20
Format                      : PGS
Codec ID                    : S_HDMV/PGS
Codec ID/Info               : Picture based subtitle format used on BDs/HD-DVDs
Duration                    : 2 h 1 min
Bit rate                    : 25.3 kb/s
Count of elements           : 2146
Stream size                 : 22.0 MiB (0%)
Title                       : Swedish
Language                    : Swedish
Default                     : No
Forced                      : No

Text #17
ID                          : 21
Format                      : PGS
Codec ID                    : S_HDMV/PGS
Codec ID/Info               : Picture based subtitle format used on BDs/HD-DVDs
Duration                    : 1 h 53 min
Bit rate                    : 72.4 kb/s
Count of elements           : 3914
Stream size                 : 58.6 MiB (0%)
Title                       : English (Commentary)
Language                    : English
Default                     : No
Forced                      : No

Text #18
ID                          : 22
Format                      : PGS
Codec ID                    : S_HDMV/PGS
Codec ID/Info               : Picture based subtitle format used on BDs/HD-DVDs
Duration                    : 2 h 2 min
Bit rate                    : 60.7 kb/s
Count of elements           : 3896
Stream size                 : 53.3 MiB (0%)
Title                       : French (Commentary)
Language                    : French
Default                     : No
Forced                      : No

Text #19
ID                          : 23
Format                      : PGS
Codec ID                    : S_HDMV/PGS
Codec ID/Info               : Picture based subtitle format used on BDs/HD-DVDs
Duration                    : 2 h 2 min
Bit rate                    : 70.6 kb/s
Count of elements           : 3896
Stream size                 : 62.0 MiB (0%)
Title                       : German (Commentary)
Language                    : German
Default                     : No
Forced                      : No

Text #20
ID                          : 24
Format                      : PGS
Codec ID                    : S_HDMV/PGS
Codec ID/Info               : Picture based subtitle format used on BDs/HD-DVDs
Duration                    : 2 h 2 min
Bit rate                    : 65.3 kb/s
Count of elements           : 3901
Stream size                 : 57.4 MiB (0%)
Title                       : Italian (Commentary)
Language                    : Italian
Default                     : No
Forced                      : No

Text #21
ID                          : 25
Format                      : PGS
Codec ID                    : S_HDMV/PGS
Codec ID/Info               : Picture based subtitle format used on BDs/HD-DVDs
Duration                    : 2 h 2 min
Bit rate                    : 38.5 kb/s
Count of elements           : 2898
Stream size                 : 33.8 MiB (0%)
Title                       : Japanese (Commentary)
Language                    : Japanese
Default                     : No
Forced                      : No

Text #22
ID                          : 26
Format                      : PGS
Codec ID                    : S_HDMV/PGS
Codec ID/Info               : Picture based subtitle format used on BDs/HD-DVDs
Duration                    : 2 h 2 min
Bit rate                    : 40.5 kb/s
Count of elements           : 3901
Stream size                 : 35.6 MiB (0%)
Title                       : Korean (Commentary)
Language                    : Korean
Default                     : No
Forced                      : No

Text #23
ID                          : 27
Format                      : PGS
Codec ID                    : S_HDMV/PGS
Codec ID/Info               : Picture based subtitle format used on BDs/HD-DVDs
Duration                    : 2 h 2 min
Bit rate                    : 62.7 kb/s
Count of elements           : 3896
Stream size                 : 55.1 MiB (0%)
Title                       : Spanish (Commentary)
Language                    : Spanish
Default                     : No
Forced                      : No

Text #24
ID                          : 28
Format                      : PGS
Codec ID                    : S_HDMV/PGS
Codec ID/Info               : Picture based subtitle format used on BDs/HD-DVDs
Duration                    : 2 h 2 min
Bit rate                    : 64.2 kb/s
Count of elements           : 3896
Stream size                 : 56.4 MiB (0%)
Title                       : Spanish (Commentary)
Language                    : Spanish
Default                     : No
Forced                      : No

Menu
00:00:00.000                : en:Chapter 01
00:04:22.679                : en:Chapter 02
00:08:48.695                : en:Chapter 03
00:16:25.776                : en:Chapter 04
00:22:33.811                : en:Chapter 05
00:30:08.515                : en:Chapter 06
00:35:08.273                : en:Chapter 07
00:40:33.348                : en:Chapter 08
00:44:45.391                : en:Chapter 09
00:48:56.809                : en:Chapter 10
00:53:51.812                : en:Chapter 11
00:56:43.775                : en:Chapter 12
01:01:31.897                : en:Chapter 13
01:07:23.873                : en:Chapter 14
01:12:12.411                : en:Chapter 15
01:16:59.114                : en:Chapter 16
01:21:35.182                : en:Chapter 17
01:24:42.661                : en:Chapter 18
01:31:16.554                : en:Chapter 19
01:36:27.031                : en:Chapter 20
01:40:59.595                : en:Chapter 21
01:46:26.589                : en:Chapter 22
01:50:00.052                : en:Chapter 23
01:53:17.791                : en:Chapter 24

Offline GigaWatt

  • Администратор
  • Топ Експерт
  • *****
  • Posts: 12427
  • Gender: Male
  • Не фалширам
Re: Предлог за SSD
« Reply #19 on 12.12.2019, Thursday, 01:33:58 »
Има промени, ама пак процесорот го рока на 100%, хдд онака лабаво 10mb/s, рамот околу 2gb графичкава е со pmw  и е релативно тивка, значи не е оптоварена, што толку го оптеретува цпу-во појма немам. На крај ќе испадне нема врска хдд-во.

Декодира видео... не знам што очекуваш, да стои idle ;D?

Декодирање и кодирање видео се CPU intensive tasks... зошто на Celeron на 775 не можеш веќе да гледаш YouTube видеа :D? Бидејќи едно јадро со малку cache веќе не е доволно за playback на видео содржина, кратко и јасно ;).

По моја пресмета филмот е 45 гигабајти, односно 45*1024=46080мб трае 2 саати, односно 60*60*120=43200 па ќе треба 46080/43200=~1.07 mb\s што не би требало да е проблем ни за ide hdd. Испадна дека е друго проблемов, не хдд али да продолжиме овде...

Ова мене ми личи на BluRay Remux... нема шанси да е толку голем, а да е rip.

Е да, со толку голем bitrate, ќе си имаш проблеми. Не е проблем читањето и запишувањето на HDD, проблем е декодирање на видео со толку голем bitrate. AVC компресијата што се користи во BluRay-ови е со многу голем bitrate (20, 30, 40.000kbps). Тоа е голем товар дури и за четворојадрено CPU, особено од генерацијата на 775. Да беше некој Core i четворојадрен, да, најверојатно немаше да има проблем (ќе беше на граница, особено ако е од прва или втора генерација, 70, 80% ќе одеше CPU usage, но немаше да плафонира).

Проблем е квантумот на податоци кој треба да го декодира, не самиот кодек ;). Симни си класичен rip до кај 7, 8, 10GB и нема да има проблеми :) ;).

EDIT: Сега видов што си ставил од MediaInfo. Прво, ги виде height и width :D.

Code: [Select]
Width                       : 3 840 pixels
Height                      : 2 160 pixels

Филмот е во UHD (Ultra HD, 4K) :D. Не ме чуди што не го вози тој процесор :D. Згора на тоа, прати го ова.

Code: [Select]
Format                      : HEVC
Format/Info                 : High Efficiency Video Coding

HEVC - High Efficiency Video Codec... во превод, ова е еквивалент на x265 или VP9 (и двата се правени врз база на HEVC спецификациите).

Значи ај што е UHD, него згора на тоа и HEVC е видео stream-от ;D. Дај не зезај, на Core i5 од пред 7 години ова ќе кочи, а не па на процесор од пред 12 и кусур години ;D ;D ;D.
It's not schizophrenia... It's just a voice in my head...

"This is really a generic concept about human thinking - when faced with large tasks we're naturally inclined to try to break them down into a bunch of smaller tasks that together make up the whole."

"Newton's third law: The only way humans have ever figured out of getting somewhere is to leave something behind."

Offline bicikle

  • Топ Експерт
  • *****
  • Posts: 3802
  • Gender: Male
Re: Предлог за SSD
« Reply #20 on 12.12.2019, Thursday, 14:07:37 »
Нека си ги префрлит на графичка :)

Offline GigaWatt

  • Администратор
  • Топ Експерт
  • *****
  • Posts: 12427
  • Gender: Male
  • Не фалширам
Re: Предлог за SSD
« Reply #21 on 12.12.2019, Thursday, 21:42:54 »
Нека си ги префрлит на графичка :)

Може, но треба да поддржува графичката. Освен тоа, плеерот треба да е таков да може да ги користи тие инструкции и библиотеки од оперативниот систем. На пример, VLC нема такви опции. Всушност, ретко кој плеер освен MPC-HC има опција да ги користи тие инструкции и библиотеки од оперативниот систем. Исто така, само графички од 2014, 2015 па наваму имаат native поддршка за декодирање на (дел од) HEVC видео stream-от (остатокот мора да го декодира процесорот).
It's not schizophrenia... It's just a voice in my head...

"This is really a generic concept about human thinking - when faced with large tasks we're naturally inclined to try to break them down into a bunch of smaller tasks that together make up the whole."

"Newton's third law: The only way humans have ever figured out of getting somewhere is to leave something behind."

Offline bicikle

  • Топ Експерт
  • *****
  • Posts: 3802
  • Gender: Male
Re: Предлог за SSD
« Reply #22 on 13.12.2019, Friday, 09:34:09 »
мислев дека тие работи гпу-то ги прави, т.е. ете кај постаритене не било така.

Offline GigaWatt

  • Администратор
  • Топ Експерт
  • *****
  • Posts: 12427
  • Gender: Male
  • Не фалширам
Re: Предлог за SSD
« Reply #23 on 13.12.2019, Friday, 15:24:42 »
И во денешно време најчесто подесувам се да прави CPU... не поради друго, не знам што ќе прави во иднина корисникот, дали ќе смени графичка, дали не, што ќе подеси, како ќе подеси, така да, најсигурно е се да обработува CPU. Најчесто модерните интегрирани графички во CPU (од кај 2013, 2014 па наваму) имаат оптимизации за декодирање и на видео, ама најсигурно е и тие да не се користат, бидејќи ако подесиш за едно CPU, а корисникот смени CPU, подесувањата може веќе да не важат и пак да се јави проблем.

Најсигурно е се да обработува CPU со auto detect за оптимизации за декодирање, но не и за прикажување (video rendering). За прикажување, обично подесувам да користи DirectVideo (DirectDraw) од DirectX 9.0c со PS 2.0 бидејќи е сеуште поддржан и интегриран дури и во Win10 ;).
It's not schizophrenia... It's just a voice in my head...

"This is really a generic concept about human thinking - when faced with large tasks we're naturally inclined to try to break them down into a bunch of smaller tasks that together make up the whole."

"Newton's third law: The only way humans have ever figured out of getting somewhere is to leave something behind."

Offline bicikle

  • Топ Експерт
  • *****
  • Posts: 3802
  • Gender: Male
Re: Предлог за SSD
« Reply #24 on 14.12.2019, Saturday, 12:29:38 »
Филмови гледам 2 пати во месецот, ако ми остане луфта, за скролање фб и моб ми брка раблта, и гледам да не поминувам повеќе од 30 минс дневно, так да ќе терам со х256 :)

Offline GigaWatt

  • Администратор
  • Топ Експерт
  • *****
  • Posts: 12427
  • Gender: Male
  • Не фалширам
Re: Предлог за SSD
« Reply #25 on 15.12.2019, Sunday, 02:39:13 »
Не е само до кодекот, и до резолуцијата е. Ако е 720p со x265, нема да има никаков проблем ;). Ако е 1080p со x265, би требало да нема никаков проблем ;).
It's not schizophrenia... It's just a voice in my head...

"This is really a generic concept about human thinking - when faced with large tasks we're naturally inclined to try to break them down into a bunch of smaller tasks that together make up the whole."

"Newton's third law: The only way humans have ever figured out of getting somewhere is to leave something behind."